Zoo 2017 | Dies Irae | A Bazz Haar Gaya Dil
Login
Username:
Password:
Remember Me:
[Signup]
[Recover Account]
Friends
BTScene
Friendly site

Free Courses Online
Friendly site

Anime RG
Friendly site

KaranPC
Friendly site

P2PDL.com
Friendly site

Free Tutorials & Courses
Friendly site
Torrent Details For "The BFG 2016 720p BluRay x264 Dual Audio [Hindi DD 5 1 - English 2 0] ESub [MW]"

The BFG 2016 720p BluRay x264 Dual Audio [Hindi DD 5 1 - English 2 0] ESub [MW]

To download this torrent, you need a BitTorrent client: Vuze or BTGuard
Download this torrent
Download using Magnet Link





Health:
Seeds: 234
Leechers: 268
Completed: 193 
Last Checked: 13-06-2018 16:10:37

Uploader Reputation points : 3072
External: Torrent




Write a Review for the Uploader:   15   Say Thanks with one good review:


Details
Name:The BFG 2016 720p BluRay x264 Dual Audio [Hindi DD 5 1 - English 2 0] ESub [MW]
Description:




General
Format                                   : Matroska
Format version                           : Version 4 / Version 2
File size                                : 1.16 GiB
Duration                                 : 1 h 57 min
Overall bit rate                         : 1 413 kb/s

Video
ID                                       : 1
Format                                   : AVC
Format/Info                              : Advanced Video Codec
Format profile                           : [email protected]
Format settings                          : CABAC / 4 Ref Frames
Format settings, CABAC                   : Yes
Format settings, RefFrames               : 4 frames
Codec ID                                 : V_MPEG4/ISO/AVC
Duration                                 : 1 h 57 min
Bit rate                                 : 900 kb/s
Width                                    : 1 280 pixels
Height                                   : 534 pixels
Display aspect ratio                     : 2.40:1
Original display aspect ratio            : 2.40:1
Frame rate mode                          : Constant
Frame rate                               : 23.976 FPS
Color space                              : YUV
Chroma subsampling                       : 4:2:0
Bit depth                                : 8 bits
Scan type                                : Progressive
Bits/(Pixel*Frame)                       : 0.055
Stream size                              : 754 MiB (64%)
Writing library                          : x264 core 148
Default                                  : Yes
Forced                                   : No

Audio #1
ID                                       : 2
Format                                   : AC-3
Format/Info                              : Audio Coding 3
Codec ID                                 : A_AC3
Duration                                 : 1 h 57 min
Bit rate mode                            : Constant
Bit rate                                 : 384 kb/s
Channel(s)                               : 6 channels
Channel positions                        : Front: L C R, Side: L R, LFE
Sampling rate                            : 48.0 kHz
Frame rate                               : 31.250 FPS (1536 SPF)
Bit depth                                : 16 bits
Compression mode                         : Lossy
Stream size                              : 322 MiB (27%)
Title                                    : Hindi Org Untouched Audio DD 5.1 384 Kbps
Language                                 : Hindi
Service kind                             : Complete Main
Default                                  : Yes
Forced                                   : No

Audio #2
ID                                       : 3
Format                                   : AAC
Format/Info                              : Advanced Audio Codec
Format profile                           : LC
Codec ID                                 : A_AAC-2
Duration                                 : 1 h 57 min
Bit rate                                 : 127 kb/s
Channel(s)                               : 2 channels
Channel positions                        : Front: L R
Sampling rate                            : 48.0 kHz
Frame rate                               : 46.875 FPS (1024 SPF)
Compression mode                         : Lossy
Stream size                              : 106 MiB (9%)
Language                                 : English
Default                                  : No
Forced                                   : No

Text
ID                                       : 4
Format                                   : UTF-8
Codec ID                                 : S_TEXT/UTF8
Codec ID/Info                            : UTF-8 Plain Text
Duration                                 : 1 h 45 min
Bit rate                                 : 32 b/s
Count of elements                        : 927
Stream size                              : 24.8 KiB (0%)
Default                                  : Yes
Forced                                   : No






YouTube Video:
Category:Movies
Language:Hindi  Hindi
Total Size:1.16 GB
Info Hash:330590CC84912410A829F8B4342DE27BDA673348
Added By:MovieFreak Verified UploaderMovie Pirate
Date Added:13-06-2018 12:03:56
Torrent Status:Torrent Verified


Ratings:Not Yet Rated (Log in to rate it)


Tracker:
udp://tracker.coppersurfer.tk:6969/announce

This Torrent also has backup trackers
URLSeedersLeechersCompleted
udp://tracker.coppersurfer.tk:6969/announce222522
udp://tracker.pirateparty.gr:6969/announce222522
udp://tracker.coppersurfer.tk:6969/announce222522
udp://tracker.leechers-paradise.org:6969/announce201713
udp://eddie4.nl:6969/announce201713
udp://tracker.tiny-vps.com:6969/announce12198
udp://9.rarbg.me:2720/announce121415
udp://9.rarbg.to:2740/announce121415
udp://public.popcorn-tracker.org:6969/announce13158
udp://open.stealth.si:80/announce8195
udp://tracker.vanitycore.co:6969/announce13148
udp://tracker.opentrackr.org:1337/announce183016
udp://bt.firebit.co.uk:6969/announce201713
udp://shadowshq.yi.org:6969/announce201713


File List: 



Warning! Do not Download Torrents Without a VPN!
Your IP Address is .   Location is
Your Internet Provider and Government can track your torrent Activity! Hide your IP ADDRESS with a VPN!
We strongly recommend using SpyOFF VPN to anonymize your Torrenting.It's FREE!
START YOUR FREE TRIAL NOW!


Comments
No comments still posted