Watch movie Gingerclown (2013) | Guy's Grocery Games: Season 18 | Lady Bird
Login
Username:
Password:
Remember Me:
[Signup]
[Recover Account]
Friends
BTScene
Friendly site

Free Courses Online
Friendly site

Anime RG
Friendly site

KaranPC
Friendly site

P2PDL.com
Friendly site

Free Tutorials & Courses
Friendly site
Torrent Details For "Rum (2018) 720p Hindi Dubbed (Audio Cleaned) HDRip x264 AAC +ESubs by Full4movies"

Rum (2018) 720p Hindi Dubbed (Audio Cleaned) HDRip x264 AAC +ESubs by Full4movies

To download this torrent, you need a BitTorrent client: Vuze or BTGuard
Download this torrent
Download using Magnet Link





Health:
Seeds: 535
Leechers: 500
Completed: 599 
Last Checked: 15-06-2018 10:28:01

Uploader Reputation points : 1034
External: Torrent




Write a Review for the Uploader:   0   Say Thanks with one good review:


Details
Name:Rum (2018) 720p Hindi Dubbed (Audio Cleaned) HDRip x264 AAC +ESubs by Full4movies
Description:


General
Complete name                  : Rum (2018) 720p Hindi Dubbed (Audio Cleaned) HDRip x264 AAC +ESubs by Full4movies.mkv
Format                         : Matroska
Format version                 : Version 4 / Version 2
File size                      : 1.31 GiB
Duration                       : 2 h 10 min
Overall bit rate               : 1 443 kb/s
Movie name                     : www.Full4movies.co
Encoded date                   : UTC 2018-06-14 12:11:13
Writing application            : mkvmerge v8.1.0 ('Psychedelic Postcard') 32bit
Writing library                : libebml v1.3.1 + libmatroska v1.4.2

Video
ID                             : 1
Format                         : AVC
Format/Info                    : Advanced Video Codec
Format profile                 : [email protected]
Format settings, CABAC         : Yes
Format settings, RefFrames     : 5 frames
Codec ID                       : V_MPEG4/ISO/AVC
Duration                       : 2 h 10 min
Bit rate                       : 1 280 kb/s
Width                          : 1 280 pixels
Height                         : 720 pixels
Display aspect ratio           : 16:9
Frame rate mode                : Constant
Frame rate                     : 23.810 FPS
Color space                    : YUV
Chroma subsampling             : 4:2:0
Bit depth                      : 8 bits
Scan type                      : Progressive
Bits/(Pixel*Frame)             : 0.058
Stream size                    : 1.17 GiB (89%)
Writing library                : x264 core 148 r2643 5c65704
Language                       : Tamil
Default                        : Yes
Forced                         : No

Audio
ID                             : 2
Format                         : AAC
Format/Info                    : Advanced Audio Codec
Format profile                 : LC
Codec ID                       : A_AAC
Duration                       : 2 h 10 min
Bit rate                       : 159 kb/s
Channel(s)                     : 2 channels
Channel positions              : Front: L R
Sampling rate                  : 48.0 kHz
Frame rate                     : 46.875 FPS (1024 SPF)
Compression mode               : Lossy
Stream size                    : 148 MiB (11%)
Language                       : Hindi
Default                        : Yes
Forced                         : No

Text
ID                             : 3
Format                         : ASS
Codec ID                       : S_TEXT/ASS
Codec ID/Info                  : Advanced Sub Station Alpha
Duration                       : 2 h 7 min
Bit rate                       : 80 b/s
Count of elements              : 1362
Compression mode               : Lossless
Stream size                    : 75.1 KiB (0%)
Language                       : English
Default                        : Yes
Forced                         : No

Screen Shoots

YouTube Video:   
Category:Movies
Language:Hindi  Hindi
Total Size:1.31 GB
Info Hash:4808DB2A4B48346CE82EB56A86D6080493385EFF
Added By:india4movie Verified Uploader
Date Added:14-06-2018 14:44:45
Torrent Status:Torrent Verified


Ratings:Not Yet Rated (Log in to rate it)


Tracker:
udp://tracker.coppersurfer.tk:6969/announce

This Torrent also has backup trackers
URLSeedersLeechersCompleted
udp://tracker.coppersurfer.tk:6969/announce424953
udp://tracker.opentrackr.org:1337/announce393531
udp://9.rarbg.me:2710/announce414281
udp://tracker.torrent.eu.org:451/announce473029
udp://open.stealth.si:80/announce37308
udp://public.popcorn-tracker.org:6969/announce363726
udp://p4p.arenabg.ch:1337/announce000
udp://tracker.zer0day.to:1337/announce000
udp://tracker.pirateparty.gr:6969/announce425053
udp://tracker.leechers-paradise.org:6969/announce393854
udp://tracker.tiny-vps.com:6969/announce403933
udp://bt.firebit.co.uk:6969/announce383854
udp://inferno.demonoid.pw:3397/announce553242
udp://shadowshq.yi.org:6969/announce383854
udp://9.rarbg.to:2780/announce414281


File List: 



Warning! Do not Download Torrents Without a VPN!
Your IP Address is .   Location is
Your Internet Provider and Government can track your torrent Activity! Hide your IP ADDRESS with a VPN!
We strongly recommend using SpyOFF VPN to anonymize your Torrenting.It's FREE!
START YOUR FREE TRIAL NOW!


Comments
No comments still posted