Action Cliquez pour regarder | Tajni sastojak (2017) ceo film gledanje | More Details
Login
Username:
Password:
Remember Me:
[Signup]
[Recover Account]
Friends
BTScene
Friendly site

Free Courses Online
Friendly site

Anime RG
Friendly site

KaranPC
Friendly site

P2PDL.com
Friendly site

Free Tutorials & Courses
Friendly site
Torrent Details For "Justice League 2017 1080p BluRay x264 Dual Audio [Hindi DD 5 1 - English 2 0] ESub"

Justice League 2017 1080p BluRay x264 Dual Audio [Hindi DD 5 1 - English 2 0] ESub

To download this torrent, you need a BitTorrent client: Vuze or BTGuard
Download this torrent
Download using Magnet Link





Health:
Seeds: 55
Leechers: 58
Completed: 22,276 
Last Checked: 15-05-2018 16:44:41

Uploader Reputation points : 3148
External: Torrent




Write a Review for the Uploader:   15   Say Thanks with one good review:


Details
Name:Justice League 2017 1080p BluRay x264 Dual Audio [Hindi DD 5 1 - English 2 0] ESub
Description:




General
Format                      : Matroska
Format version              : Version 4 / Version 2
File size                   : 2.22 GiB
Duration                    : 2 h 0 min
Overall bit rate            : 2 647 kb/s

Video
ID                          : 1
Format                      : AVC
Format/Info                 : Advanced Video Codec
Format profile              : [email protected]
Format settings             : CABAC / 4 Ref Frames
Format settings, CABAC      : Yes
Format settings, ReFrames   : 4 frames
Codec ID                    : V_MPEG4/ISO/AVC
Duration                    : 2 h 0 min
Bit rate                    : 2 250 kb/s
Width                       : 1 920 pixels
Height                      : 1 072 pixels
Display aspect ratio        : 16:9
Frame rate mode             : Constant
Frame rate                  : 23.976 (24000/1001) FPS
Color space                 : YUV
Chroma subsampling          : 4:2:0
Bit depth                   : 8 bits
Scan type                   : Progressive
Bits/(Pixel*Frame)          : 0.046
Stream size                 : 1.89 GiB (85%)
Writing library             : x264 core 155
Default                     : Yes
Forced                      : No

Audio #1
ID                          : 2
Format                      : AC-3
Format/Info                 : Audio Coding 3
Codec ID                    : A_AC3
Duration                    : 2 h 0 min
Bit rate mode               : Constant
Bit rate                    : 256 kb/s
Channel(s)                  : 6 channels
Channel positions           : Front: L C R, Side: L R, LFE
Sampling rate               : 48.0 kHz
Frame rate                  : 31.250 FPS (1536 SPF)
Bit depth                   : 16 bits
Compression mode            : Lossy
Delay relative to video     : -43 ms
Stream size                 : 220 MiB (10%)
Language                    : Hindi
Service kind                : Complete Main
Default                     : Yes
Forced                      : No

Audio #2
ID                          : 3
Format                      : AAC
Format/Info                 : Advanced Audio Codec
Format profile              : LC
Codec ID                    : A_AAC-2
Duration                    : 2 h 0 min
Bit rate                    : 138 kb/s
Channel(s)                  : 2 channels
Channel positions           : Front: L R
Sampling rate               : 48.0 kHz
Frame rate                  : 46.875 FPS (1024 SPF)
Compression mode            : Lossy
Delay relative to video     : -43 ms
Stream size                 : 119 MiB (5%)
Language                    : English
Default                     : No
Forced                      : No

Text
ID                          : 4
Format                      : UTF-8
Codec ID                    : S_TEXT/UTF8
Codec ID/Info               : UTF-8 Plain Text
Duration                    : 1 h 59 min
Bit rate                    : 49 b/s
Count of elements           : 1507
Stream size                 : 42.8 KiB (0%)
Default                     : Yes
Forced                      : No








YouTube Video:
Category:Mobile
Language:Hindi  Hindi
Total Size:2.22 GB
Info Hash:F158B1301B77CBEEA94A8D3FE676816AABCF7631
Added By:MovieFreak Verified UploaderMovie Pirate
Date Added:01-03-2018 08:22:56
Torrent Status:Torrent Verified


Ratings:Not Yet Rated (Log in to rate it)


Tracker:
udp://tracker.pirateparty.gr:6969/announce

This Torrent also has backup trackers
URLSeedersLeechersCompleted
udp://tracker.pirateparty.gr:6969/announce887,957
udp://tracker.opentrackr.org:1337/announce861,191
http://tracker.opentrackr.org/announce000
udp://tracker.vanitycore.co:6969/announce4103,250
udp://public.popcorn-tracker.org:6969/announce582,902
udp://9.rarbg.to:2710/announce502
udp://9.rarbg.me:2710/announce502
udp://9.rarbg.com:2770/announce502
udp://inferno.demonoid.pw:3391/announce68818
udp://tracker.internetwarriors.net:1337/announce000
udp://ipv4.tracker.harry.lu:80/announce000
udp://p4p.arenabg.ch:1337/announce000
http://tracker.vanitycore.co:6969/announce4103,250
http://public.popcorn-tracker.org:6969/announce582,902
udp://tracker.zer0day.to:1337/announce000


File List: 



Warning! Do not Download Torrents Without a VPN!
Your IP Address is .   Location is
Your Internet Provider and Government can track your torrent Activity! Hide your IP ADDRESS with a VPN!
We strongly recommend using SpyOFF VPN to anonymize your Torrenting.It's FREE!
START YOUR FREE TRIAL NOW!


Comments
No comments still posted