Os Deuses Devem Estar Loucos 4: Loucuras Em Hong Kong Assistir Os Deuses Devem Estar Loucos 4: Loucuras Em Hong Kong 720p Dublado/Legendado Online Nixau, nativo de uma tribo que vive num deserto africano, vai parar em Hong Kong. Lá, espantado com o tumulto da cidade grande, envolve-se em muitas trapalhadas, ao mesmo tempo em que faz amizade com bela produtora de comerciais que atravessa crise nos negócios. Ver filme Os Deuses ... | Plus belle la ... saison 14 épisode 3538 | MojiPop - GIF Sticker Keyboard (AiMee)
Login
Username:
Password:
Remember Me:
[Signup]
[Recover Account]
Friends
BTScene
Friendly site

Free Courses Online
Friendly site

Anime RG
Friendly site

KaranPC
Friendly site

P2PDL.com
Friendly site

Free Tutorials & Courses
Friendly site
Torrent Details For "Daredevil - {2015} - Season 1 - Complete - X264 - Maxillion - [GloTV]"

Daredevil - {2015} - Season 1 - Complete - X264 - Maxillion - [GloTV]

To download this torrent, you need a BitTorrent client: Vuze or BTGuard
Download this torrent
Download using Magnet Link





Health:
Seeds: 1,656
Leechers: 851
Completed: 29,570 
Last Checked: 19-04-2015 17:12:35

Uploader Reputation points : 2408
External: Torrent




Write a Review for the Uploader:   50   Say Thanks with one good review:


Details
Name:Daredevil - {2015} - Season 1 - Complete - X264 - Maxillion - [GloTV]
Description:







Creator: Drew Goddard
Stars: Charlie Cox, Deborah Ann Woll, Elden Henson


Storyline:


Matt Murdock, a Marvel Comics hero who's a lawyer by day but fights the bad guys at night to avenge the murder of his father, a boxer. But what sets Matt apart from most superheroes isn't his back story it's his handicap. Matt is blind, the result of a childhood accident that may have removed his ability to see but gifted him with heightened senses of touch, taste, hearing and smell.



Format                                   : MPEG-4
Format profile                           : Base Media
Codec ID                                 : isom
Duration                                 : 52mn 50s
Overall bit rate                         : 449 Kbps
Movie name                               : Daredevil
Performer                                : Maxillion
Writing application                      : Lavf56.1.0
Comment                                  : A Maxillion Encode

Video
ID                                       : 1
Format                                   : AVC
Format/Info                              : Advanced Video Codec
Format profile                           : [email protected]
Format settings, CABAC                   : Yes
Format settings, ReFrames                : 4 frames
Codec ID                                 : avc1
Codec ID/Info                            : Advanced Video Coding
Duration                                 : 52mn 50s
Bit rate                                 : 253 Kbps
Width                                    : 700 pixels
Height                                   : 400 pixels
Display aspect ratio                     : 16:9
Original display aspect ratio            : 16:9
Frame rate mode                          : Variable
Frame rate                               : 24.134 fps
Minimum frame rate                       : 23.810 fps
Maximum frame rate                       : 48.780 fps
Color space                              : YUV
Chroma subsampling                       : 4:2:0
Bit depth                                : 8 bits
Scan type                                : Progressive
Bits/(Pixel*Frame)                       : 0.037
Stream size                              : 95.6 MiB (56%)
Writing library                          : x264 core 142 r2431 a5831aa
Encoding settings                        : cabac=1 / ref=1 / deblock=1:0:0 / analyse=0x1:0x111 / me=hex / subme=2 / psy=1 / psy_rd=1.00:0.00 / mixed_ref=0 / me_range=16 / chroma_me=1 / trellis=0 / 8x8dct=0 / cqm=0 / deadzone=21,11 / fast_pskip=1 / chroma_qp_offset=0 / threads=12 / lookahead_threads=3 / sliced_threads=0 / nr=0 / decimate=1 / interlaced=0 / bluray_compat=0 / constrained_intra=0 / bframes=3 / b_pyramid=2 / b_adapt=1 / b_bias=0 / direct=1 / weightb=1 / open_gop=0 / weightp=1 / keyint=240 / keyint_min=24 / scenecut=40 / intra_refresh=0 / rc_lookahead=10 / rc=crf / mbtree=1 / crf=25.0 / qcomp=0.60 / qpmin=0 / qpmax=69 / qpstep=4 / vbv_maxrate=20000 / vbv_bufsize=25000 / crf_max=0.0 / nal_hrd=none / filler=0 / ip_ratio=1.40 / aq=1:1.00
Color primaries                          : BT.709
Transfer characteristics                 : BT.709
Matrix coefficients                      : BT.709

Audio
ID                                       : 2
Format                                   : AC-3
Format/Info                              : Audio Coding 3
Format profile                           : Dolby Digital
Mode extension                           : CM (complete main)
Format settings, Endianness              : Big
Codec ID                                 : ac-3
Duration                                 : 52mn 46s
Bit rate mode                            : Constant
Bit rate                                 : 192 Kbps
Channel(s)                               : 2 channels
Channel positions                        : Front: L R
Sampling rate                            : 32.0 KHz
Bit depth                                : 16 bits
Compression mode                         : Lossy
Stream size                              : 72.5 MiB (43%)
YouTube Video:
Category:Packs
Language:English  English
Total Size:2.00 GB
Info Hash:292B2463C1A197A536464280573B917D067B278A
Added By:Maxillion
Date Added:11-04-2015 03:48:49
Torrent Status:Unverified Torrent


Ratings:Not Yet Rated (Log in to rate it)


Tracker:
udp://tracker.openbittorrent.com:80/announce

This Torrent also has backup trackers
URLSeedersLeechersCompleted
udp://tracker.openbittorrent.com:80/announce000
udp://tracker.publicbt.com:80/announce000
udp://open.demonii.com:1337/announce000
udp://tracker.glotorrents.com:6969/announce000
udp://glotorrents.com:6969/announce000
udp://glotorrents.pw:6969/announce000


File List: 



Warning! Do not Download Torrents Without a VPN!
Your IP Address is .   Location is
Your Internet Provider and Government can track your torrent Activity! Hide your IP ADDRESS with a VPN!
We strongly recommend using SpyOFF VPN to anonymize your Torrenting.It's FREE!
START YOUR FREE TRIAL NOW!


Comments
No comments still posted