Once Upon A Time S04 Season 4 Complete 480p HDTV x264 AAC E-Subs MP4 | Alone - Season 5 | Thriller, Drama, British Chatroom - Willkommen im Anti-Social Network Abspielen Abspielen 93 Min. | Großbritannien | 2010 | FSK 16 Britischer Psychothriller über eine Gruppe internetsüchtiger Teenager und die dunkle Seite der virtuellen Welt. Meine Liste
Login
Username:
Password:
Remember Me:
[Signup]
[Recover Account]
Friends
BTScene
Friendly site

Free Courses Online
Friendly site

Anime RG
Friendly site

KaranPC
Friendly site

P2PDL.com
Friendly site

Free Tutorials & Courses
Friendly site
Torrent Details For "Crimson Peak 2015 720p x264 Esub BluRay Dual Audio English Hindi GOPISAHI"

Crimson Peak 2015 720p x264 Esub BluRay Dual Audio English Hindi GOPISAHI

To download this torrent, you need a BitTorrent client: Vuze or BTGuard
Download this torrent
Download using Magnet Link





Health:
Seeds: 16
Leechers: 10
Completed: 1,251 
Last Checked: 20-06-2018 21:24:55

Uploader Reputation points : 2585
External: Torrent




Write a Review for the Uploader:   10   Say Thanks with one good review:


Details
Name:Crimson Peak 2015 720p x264 Esub BluRay Dual Audio English Hindi GOPISAHI
Description:

Format                         : Matroska
Format version                 : Version 4 / Version 2
File size                      : 552 MiB
Duration                       : 1 h 53 min
Overall bit rate               : 678 kb/s
Movie name                     : Crimson Peak 2015 GOPISAHI

Video
Format                         : AVC
Codec ID                       : V_MPEG4/ISO/AVC
Duration                       : 1 h 53 min
Bit rate                       : 500 kb/s
Width                          : 1 280 pixels
Height                         : 688 pixels
Display aspect ratio           : 1.85:1
Frame rate mode                : Constant
Frame rate                     : 25.000 FPS
Stream size                    : 407 MiB (74%)
Title                          : GOPISAHI
Writing library                : x264 core 155 r2893 b00bcaf


Audio #1
Format                         : AAC
Duration                       : 1 h 53 min
Bit rate                       : 87.5 kb/s
Channel(s)                     : 6 channels
Channel positions              : Front: L C R, Side: L R, LFE
Sampling rate                  : 44.1 kHz
Frame rate                     : 43.066 FPS (1024 SPF)
Compression mode               : Lossy
Stream size                    : 71.3 MiB (13%)
Title                          : GOPISAHI
Language                       : English


Audio #2
Format                         : AAC
Duration                       : 1 h 53 min
Bit rate                       : 88.1 kb/s
Channel(s)                     : 6 channels
Channel positions              : Front: L C R, Side: L R, LFE
Sampling rate                  : 44.1 kHz
Frame rate                     : 43.066 FPS (1024 SPF)
Compression mode               : Lossy
Stream size                    : 71.7 MiB (13%)
Title                          : GOPISAHI
Language                       : Hindi

Text
Language                       : English


YouTube Video:
Category:Mobile
Language:Hindi  Hindi
Total Size:552.28 MB
Info Hash:F9E12A5C7C2D8D6F46F37E7A48428254A7CB2493
Added By:GOPISAHI Verified UploaderMovie Pirate
Date Added:06-03-2018 14:44:10
Torrent Status:Torrent Verified


Ratings:Not Yet Rated (Log in to rate it)


Tracker:
udp://9.rarbg.com:2740/announce

This Torrent also has backup trackers
URLSeedersLeechersCompleted
udp://9.rarbg.com:2740/announce210
udp://9.rarbg.to:2800/announce210
udp://inferno.demonoid.pw:3391/announce113
udp://tracker.leechers-paradise.org:6969/announce110
udp://tracker.coppersurfer.tk:80/announce21331
udp://tracker.coppersurfer.tk:6969/announce21331
udp://tracker.opentrackr.org:1337/announce2120
udp://p4p.arenabg.com:1337/announce000
udp://p4p.arenabg.ch:1337/announce000
UDP://TRACKER.ZER0DAY.TO:1337/ANNOUNCE000
UDP://EDDIE4.NL:6969/ANNOUNCE000
udp://tracker.pirateparty.gr:6969/announce21331
udp://tracker.tiny-vps.com:6969/announce1118
udp://public.popcorn-tracker.org:6969/announce11217
udp://tracker.torrent.eu.org:451/announce000
udp://coppersurfer.tk:6969/announce000
http://jiotorrents.net/announce.php?pk=e4f8706d012352e15d86ef04d6a7c6d0f5588489000


File List: 



Warning! Do not Download Torrents Without a VPN!
Your IP Address is .   Location is
Your Internet Provider and Government can track your torrent Activity! Hide your IP ADDRESS with a VPN!
We strongly recommend using SpyOFF VPN to anonymize your Torrenting.It's FREE!
START YOUR FREE TRIAL NOW!


Comments
No comments still posted